coor
一代宗師

[更 早] [歐美] [動作] [BD-1080P] 黑洞 The.Black.Hole.1979.UNCUT.1080p.BluRay.x264.DTS-FGT 8.88GB

-->

帖子完整標題:黑洞 The.Black.Hole.1979.UNCUT.1080p.BluRay.x264.DTS-FGT 8.88GB




◎譯  名 黑洞
◎片  名 The Black Hole
◎年  代 1979
◎產  地 美國
◎類  別 動作 / 科幻 / 家庭 / 冒險
◎語  言 英語
◎上映日期 1979-12-21(美國)
◎IMDb評分 6.0/10 from 21870 users
◎IMDb鏈接 https://www.imdb.com/title/tt0078869
◎豆瓣評分 5.7/10 from 164 users
◎豆瓣鏈接 https://movie.douban.com/subject/1293543/
◎片  長 98分鐘
◎導  演 Gary Nelson
◎編  劇 Bob Barbash / Gerry Day / Jeb Rosebrook / Richard H. Landau
◎主  演 馬克西米連·謝爾 Maximilian Schell
      安東尼·博金斯 Anthony Perkins
      羅伯特·福斯特 Robert Forster
      歐內斯特·博格寧 Ernest Borgnine


◎標  簽 科幻 | 美國 | 1979 | 迪斯尼 | 電影 | 1970s | 奧斯卡 | 動作

◎簡  介

  在外太空探險的美國“天鵝號”太空船,由冷酷嚴峻的藍刻博士領導,他有著一個狂妄的科學計畫,正陰謀進行中,機緣巧遇的“天鵝號”找到了宇宙最神秘的禁地——黑洞,他們不顧一切的闖入,經歷了人類前所未有的冒險歷程。

◎獲獎情況

  第52屆奧斯卡金像獎(1980)
  最佳攝影(提名) 弗蘭克·V·菲利普斯
  最佳視覺效果(提名) Harrison Ellenshaw / 亞特·克魯克香克 / 尤斯塔斯·萊塞特 / 彼得·艾倫肖 / 丹尼·李 / 喬·哈爾
Video
ID : 1
Format : AVC
Format/Info : Advanced Video Codec
Format profile : [email protected]
Format settings : CABAC / 4 Ref Frames
Format settings, CABAC : Yes
Format settings, Reference frames : 4 frames
Codec ID : V_MPEG4/ISO/AVC
Duration : 1 h 37 min
Bit rate : 11.5 Mb/s
Width : 1 920 pixels
Height : 816 pixels
Display aspect ratio : 2.35:1
Frame rate mode : Constant
Frame rate : 23.976 (24000/1001) FPS
Color space : YUV
Chroma subsampling : 4:2:0
Bit depth : 8 bits
Scan type : Progressive
Bits/(Pixel*Frame) : 0.306
Stream size : 7.85 GiB (88%)
Title : The.Black.Hole.1979.UNCUT.1080p.BluRay.x264.DTS-FGT
Writing library : x264 core 148 r2748 97eaef2
Encoding settings : cabac=1 / ref=4 / deblock=1:-2:-2 / analyse=0x3:0x113 / me=umh / subme=9 / psy=1 / psy_rd=1.00:0.15 / mixed_ref=1 / me_range=16 / chroma_me=1 / trellis=2 / 8x8dct=1 / cqm=0 / deadzone=21,11 / fast_pskip=1 / chroma_qp_offset=-3 / threads=24 / lookahead_threads=3 / sliced_threads=0 / nr=0 / decimate=1 / interlaced=0 / bluray_compat=0 / constrained_intra=0 / bframes=3 / b_pyramid=2 / b_adapt=1 / b_bias=0 / direct=3 / weightb=1 / open_gop=0 / weightp=2 / keyint=250 / keyint_min=25 / scenecut=40 / intra_refresh=0 / rc_lookahead=50 / rc=2pass / mbtree=1 / bitrate=11500 / ratetol=1.0 / qcomp=0.60 / qpmin=0 / qpmax=69 / qpstep=4 / cplxblur=20.0 / qblur=0.5 / vbv_maxrate=31250 / vbv_bufsize=31250 / nal_hrd=none / filler=0 / ip_ratio=1.40 / aq=1:1.00
Language : English
Default : Yes
Forced : No

Audio
ID : 2
Format : DTS
Format/Info : Digital Theater Systems
Codec ID : A_DTS
Duration : 1 h 37 min
Bit rate mode : Constant
Bit rate : 1 509 kb/s
Channel(s) : 6 channels
Channel layout : C L R Ls Rs LFE
Sampling rate : 48.0 kHz
Frame rate : 93.750 FPS (512 SPF)
Bit depth : 24 bits
Compression mode : Lossy
Stream size : 1.03 GiB (12%)
Title : The.Black.Hole.1979.UNCUT.1080p.BluRay.x264.DTS-FGT
Language : English
Default : Yes
Forced : No

Text
ID : 3
Format : UTF-8
Codec ID : S_TEXT/UTF8
Codec ID/Info : UTF-8 Plain Text
Duration : 1 h 33 min
Bit rate : 52 b/s
Count of elements : 992
Stream size : 36.3 KiB (0%)
Language : English
Default : Yes
Forced : No

Menu
00:00:00.000 : en:Chapter 01
00:08:03.065 : en:Chapter 02
00:22:28.597 : en:Chapter 03
00:29:31.936 : en:Chapter 04
00:38:39.650 : en:Chapter 05
00:43:32.484 : en:Chapter 06
01:04:04.841 : en:Chapter 07
01:13:04.713 : en:Chapter 08
01:22:14.721 : en:Chapter 09
01:28:08.574 : en:Chapter 10





1 個附件 售價 大小 下載 時間

The.Black.Hole.1979.UNCUT.1080p.BluRay.x264.DTS-FGT.torrent 0 金幣 44.96K 952 次 1月前

#1樓
發帖時間:2020-01-21 08:49:03   |   回復數:3
tanchoohoon
武林盟主
感謝樓主的無私分享
1月前 #2樓
kola13
一派掌門
感謝分享
1月前 #3樓
911degrees
隱世仙人♂
非常感謝,謝謝分享
25天前 #4樓
游客組