coor
一代宗師

[2019] [歐美] [劇情] [WEB-720P] 挑戰者號之殤/挑戰者號災難 The.Challenger.Disaster.2019.720p.WEBRip.x264-ASSOCiATE 754.58MB

-->

帖子完整標題:挑戰者號之殤/挑戰者號災難 The.Challenger.Disaster.2019.720p.WEBRip.x264-ASSOCiATE 754.58MB




◎譯  名 挑戰者號之殤 / 挑戰者號災難
◎片  名 The Challenger Disaster
◎年  代 2019
◎產  地 美國
◎類  別 劇情
◎語  言 英語
◎上映日期 2019-01-25(美國)
◎IMDb評分 6.5/10 from 860 users
◎IMDb鏈接 https://www.imdb.com/title/tt7783966
◎豆瓣評分 7.0/10 from 95 users
◎豆瓣鏈接 https://movie.douban.com/subject/30448638/
◎片  長 98分鐘
◎導  演 Nathan VonMinden
◎編  劇 Nathan Vonminden
◎主  演 迪恩·凱恩 Dean Cain
      格倫·莫肖爾 Glenn Morshower
      Les Miles


◎標  簽 美國 | 2019 | 劇情 | 傳記 | 迪恩·凱恩 | 歷史 | 美國 | 電影

◎簡  介

  本影片基于真實故事改編。在1986年挑戰者號升空爆炸的前夕,一名工程師竭盡全力阻止飛船的發射。這位一腔熱血的工程師爭分多秒地爭取中止這艘價值十億美元的挑戰者號飛船的發射,堅持認為O型密封環會故障失效并導致飛船全員覆滅。馬歇爾太空飛行公司做出了商業層面的決策,而這位工程師做出了人性的抉擇。
Video
ID : 1
Format : AVC
Format/Info : Advanced Video Codec
Format profile : [email protected]
Format settings : CABAC / 5 Ref Frames
Format settings, CABAC : Yes
Format settings, Reference frames : 5 frames
Codec ID : V_MPEG4/ISO/AVC
Duration : 1 h 38 min
Bit rate : 945 kb/s
Width : 1 280 pixels
Height : 532 pixels
Display aspect ratio : 2.40:1
Frame rate mode : Constant
Frame rate : 23.976 (24000/1001) FPS
Color space : YUV
Chroma subsampling : 4:2:0
Bit depth : 8 bits
Scan type : Progressive
Bits/(Pixel*Frame) : 0.058
Stream size : 665 MiB (88%)
Writing library : x264 core 159 r2991 1771b55
Encoding settings : cabac=1 / ref=5 / deblock=1:-3:-3 / analyse=0x3:0x113 / me=hex / subme=8 / psy=1 / psy_rd=1.00:0.15 / mixed_ref=1 / me_range=16 / chroma_me=1 / trellis=2 / 8x8dct=1 / cqm=0 / deadzone=21,11 / fast_pskip=1 / chroma_qp_offset=-3 / threads=17 / lookahead_threads=2 / sliced_threads=0 / nr=0 / decimate=1 / interlaced=0 / bluray_compat=0 / constrained_intra=0 / bframes=3 / b_pyramid=2 / b_adapt=1 / b_bias=0 / direct=3 / weightb=1 / open_gop=0 / weightp=2 / keyint=250 / keyint_min=23 / scenecut=40 / intra_refresh=0 / rc_lookahead=50 / rc=crf / mbtree=1 / crf=18.0 / qcomp=0.60 / qpmin=0 / qpmax=69 / qpstep=4 / vbv_maxrate=17500 / vbv_bufsize=17500 / crf_max=0.0 / nal_hrd=none / filler=0 / ip_ratio=1.40 / aq=1:0.60
Default : Yes
Forced : No
Color range : Limited
Matrix coefficients : BT.709

Audio
ID : 2
Format : AAC LC
Format/Info : Advanced Audio Codec Low Complexity
Codec ID : A_AAC-2
Duration : 1 h 38 min
Bit rate : 126 kb/s
Channel(s) : 2 channels
Channel layout : L R
Sampling rate : 44.1 kHz
Frame rate : 43.066 FPS (1024 SPF)
Compression mode : Lossy
Stream size : 88.3 MiB (12%)
Language : English
Default : Yes
Forced : No

Text
ID : 3
Format : UTF-8
Codec ID : S_TEXT/UTF8
Codec ID/Info : UTF-8 Plain Text
Duration : 1 h 33 min
Bit rate : 87 b/s
Count of elements : 1791
Stream size : 59.7 KiB (0%)
Language : English
Default : No
Forced : No





1 個附件 售價 大小 下載 時間

The.Challenger.Disaster.2019.720p.WEBRip.x264-ASSOCiATE.torrent 0 金幣 15.49K 910 次 1月前

#1樓
發帖時間:2020-01-21 07:47:38   |   回復數:1
911degrees
隱世仙人♂
非常感謝,謝謝分享
25天前 #2樓
游客組